<?xml version="1.0" standalone="no"?>
<!DOCTYPE svg PUBLIC "-//W3C//DTD SVG 1.1//EN" "http://www.w3.org/Graphics/SVG/1.1/DTD/svg11.dtd" >
<svg xmlns="http://www.w3.org/2000/svg">
<metadata></metadata>
<defs>
<font id="eurosewide_heavyregular" horiz-adv-x="1562" >
<font-face units-per-em="2048" ascent="1638" descent="-410" />
<missing-glyph horiz-adv-x="868" />
<glyph horiz-adv-x="0" />
<glyph unicode="&#xd;" horiz-adv-x="868" />
<glyph unicode=" "  horiz-adv-x="868" />
<glyph unicode="&#x09;" horiz-adv-x="868" />
<glyph unicode="&#xa0;" horiz-adv-x="868" />
<glyph unicode="!" horiz-adv-x="858" d="M215 1354h391l-24 -916h-340zM238 0v274h354v-274h-354z" />
<glyph unicode="&#x22;" horiz-adv-x="1216" d="M113 1358h434l-72 -543h-295zM672 1358h430l-70 -543h-295z" />
<glyph unicode="#" horiz-adv-x="2115" d="M125 449l72 129h370l111 217h-373l74 131h371l137 252h198l-137 -252h355l135 252h202l-133 -252h359l-64 -131h-366l-119 -217h371l-74 -129h-365l-139 -259h-197l138 259h-357l-137 -259h-203l138 259h-367zM764 578h356l113 217h-350z" />
<glyph unicode="$" horiz-adv-x="1957" d="M94 463h369q0 -193 99.5 -213.5t287.5 -20.5v355q-287 0 -430.5 19.5t-234.5 105.5t-91 274q0 236 189.5 312.5t566.5 76.5v129h254v-129q399 0 559 -77.5t160 -346.5h-375q0 131 -63.5 160t-280.5 29v-328q260 0 419.5 -24.5t260 -108.5t100.5 -248q0 -246 -190.5 -338 t-589.5 -92v-148h-254v148q-287 0 -432.5 22.5t-234.5 121t-89 321.5zM492 989q0 -117 79.5 -144.5t278.5 -27.5v320q-119 -6 -238.5 -30t-119.5 -118zM1104 227q231 0 308 44t77 132q0 111 -64.5 140.5t-220.5 29.5h-100v-346z" />
<glyph unicode="%" horiz-adv-x="2514" d="M113 856v320q0 88 89 136t193 48h305q109 0 210.5 -51.5t101.5 -132.5v-293q0 -111 -92.5 -166t-219.5 -55h-305q-109 0 -195.5 52t-86.5 142zM322 932q0 -63 31.5 -91t107.5 -28h176q92 0 128 25.5t36 93.5v158q0 70 -36 97t-128 27h-176q-74 0 -106.5 -28.5 t-32.5 -95.5v-158zM479 0l1336 1358h262l-1340 -1358h-258zM1532 188v318q0 92 88 140t195 48h303q109 0 210 -53t101 -135v-293q0 -111 -92 -164t-219 -53h-303q-111 0 -197 51t-86 141zM1739 266q0 -121 137 -121h176q94 0 131 25.5t37 95.5v158q0 68 -38 95.5t-130 27.5 h-176q-74 0 -105.5 -27.5t-31.5 -95.5v-158z" />
<glyph unicode="&#x26;" horiz-adv-x="2168" d="M160 438q0 156 74.5 237t279.5 107q-70 59 -102.5 108.5t-32.5 129.5q0 201 161.5 265.5t493.5 64.5q354 0 511 -66.5t157 -290.5v-88h-377q0 145 -40 181t-236 36q-145 0 -208 -15t-63 -89q0 -66 25.5 -94.5t118.5 -79.5l591 -330q16 39 17 82q0 47 -17 80h357 q10 -57 13 -94t3 -60q0 -63 -12.5 -100t-32.5 -86l301 -170l-213 -170l-243 135q-90 -86 -242 -113.5t-361 -27.5h-229q-301 0 -497.5 86t-196.5 362zM559 457q0 -154 80 -193t244 -39h196q125 0 190.5 10.5t129.5 53.5l-637 348q-131 -20 -167 -54t-36 -126z" />
<glyph unicode="'" horiz-adv-x="651" d="M113 1358h422l-70 -543h-287z" />
<glyph unicode="(" horiz-adv-x="964" d="M172 252v563q0 326 98.5 444.5t548.5 118.5v-241q-168 0 -215 -64.5t-47 -195.5v-62v-563q0 -135 87 -171t175 -46v-242q-371 0 -509 107.5t-138 351.5z" />
<glyph unicode=")" horiz-adv-x="964" d="M150 35q188 0 225 71.5t37 249.5v564q0 135 -87 170.5t-175 46.5v239q371 0 510 -107.5t139 -348.5v-564q0 -326 -99.5 -445.5t-549.5 -119.5v244z" />
<glyph unicode="*" horiz-adv-x="1957" d="M424 1051l86 149l352 -86v246h230v-246l360 86l76 -162l-352 -75l210 -197l-182 -90l-223 203l-233 -203l-191 92l215 195z" />
<glyph unicode="+" d="M143 616v197h527v363h221v-363h532v-197h-532v-364h-221v364h-527z" />
<glyph unicode="," horiz-adv-x="698" d="M139 -96q82 0 117 17.5t35 64.5h-127v260h352v-236q0 -133 -64.5 -186t-261.5 -53h-51v133z" />
<glyph unicode="-" horiz-adv-x="737" d="M-2 387v234h737v-234h-737z" />
<glyph unicode="." horiz-adv-x="659" d="M156 2v248h346v-248h-346z" />
<glyph unicode="/" horiz-adv-x="1892" d="M16 -203l1377 1561h295l-1379 -1561h-293z" />
<glyph unicode="0" horiz-adv-x="1957" d="M113 377v620q0 174 170 268.5t376 94.5h590q213 0 408.5 -101.5t195.5 -261.5v-571q0 -211 -181 -319.5t-423 -108.5l-590 2q-213 0 -379.5 101.5t-166.5 275.5zM514 528q0 -127 61.5 -180t208.5 -53h340q182 0 252 48t70 185v306q0 131 -73 185t-249 54h-340 q-145 0 -207.5 -54t-62.5 -185v-306z" />
<glyph unicode="1" horiz-adv-x="1957" d="M217 946l668 412h483v-1358h-395v1102l-506 -332z" />
<glyph unicode="2" horiz-adv-x="1957" d="M156 0v291q0 160 75.5 239.5t208.5 110.5t397.5 56.5t374 71.5t109.5 167q0 63 -89 95t-288 32q-229 0 -309 -31t-80 -119v-59h-399v74q0 102 33.5 168.5t120.5 146.5t245 100.5t389 20.5q416 0 600.5 -84t184.5 -344q0 -225 -130.5 -330.5t-305.5 -136.5t-426 -53.5 t-279.5 -50t-28.5 -111.5v-18h1170v-236h-1573z" />
<glyph unicode="3" horiz-adv-x="1957" d="M145 391q0 18 1 38t8 52h397q0 -131 58.5 -172t275.5 -41h80q227 0 311 24.5t84 123.5q0 88 -63.5 109.5t-249.5 21.5h-256v270l235 2h86q141 0 180 20.5t39 108.5t-88 109.5t-295 21.5q-240 0 -300 -31.5t-70 -150.5h-398q0 236 167 353.5t568 117.5q264 0 435.5 -20.5 t281 -97t109.5 -242.5q0 -137 -68.5 -206.5t-263.5 -94.5q205 -18 282.5 -88t77.5 -216q0 -199 -219 -307t-594 -108q-352 0 -581.5 110.5t-229.5 292.5z" />
<glyph unicode="4" horiz-adv-x="1957" d="M82 287v301l917 770h596v-803h240v-268h-240v-287h-401v287h-1112zM453 555h735l2 567z" />
<glyph unicode="5" horiz-adv-x="1957" d="M184 420h408q0 -109 72.5 -133.5t271.5 -24.5q242 0 335 25.5t93 140.5v66q0 111 -62.5 153.5t-263.5 42.5h-135h-92q-111 0 -155 -18.5t-54 -53.5h-371v740h1459v-293h-1084v-205q82 53 191.5 68.5t269.5 15.5q381 0 545 -99.5t164 -344.5q0 -199 -74 -327t-247 -149.5 t-302 -27.5t-233 -6h-91.5t-93.5 -2q-225 0 -320.5 40t-145.5 111.5t-67.5 135t-17.5 145.5z" />
<glyph unicode="6" horiz-adv-x="1955" d="M145 909q0 279 180.5 368t624.5 89q283 0 437.5 -24.5t248 -114.5t93.5 -273h-408q0 84 -63.5 111t-223.5 27h-178q-160 0 -230.5 -50.5t-70.5 -113.5v-187q57 51 147.5 76t307.5 25q391 0 565 -78t174 -324q0 -252 -198.5 -351t-596.5 -99q-420 0 -613.5 92t-193.5 358z M553 432q0 -119 115.5 -163t281.5 -44q164 0 275.5 42t111.5 159q0 113 -107.5 146.5t-283.5 33.5q-174 0 -283.5 -32.5t-109.5 -141.5z" />
<glyph unicode="7" horiz-adv-x="1957" d="M145 1053v305h1549l-2 -320l-842 -1038h-465l850 1053h-1090z" />
<glyph unicode="8" horiz-adv-x="1955" d="M143 399q0 135 62.5 203t228.5 103q-154 39 -206 99t-52 189q0 213 160 293t495 80h232q348 0 513 -77t165 -290q0 -104 -55.5 -187.5t-196.5 -106.5q160 -35 218 -105t58 -203q0 -248 -173 -327.5t-582 -79.5h-54q-295 0 -458.5 24.5t-259 112.5t-95.5 272zM555 410 q0 -102 56.5 -129t230.5 -27h215q152 0 230.5 15.5t78.5 138.5q0 96 -47 123.5t-148 27.5h-49l-313 4q-133 0 -193.5 -23.5t-60.5 -129.5zM582 997q0 -92 58 -123.5t157 -31.5h293q109 0 176 34.5t67 122.5q0 82 -66.5 103.5t-244.5 21.5h-129q-205 0 -258 -27.5t-53 -99.5z " />
<glyph unicode="9" horiz-adv-x="1957" d="M150 408h401q0 -111 56.5 -146t213.5 -35l197 2q193 0 263.5 34t70.5 151v204q-61 -55 -186.5 -76.5t-280.5 -21.5q-391 0 -555 81t-164 325q0 266 167 354t582 88q438 0 640 -83t202 -341l2 -422q0 -291 -158.5 -411.5t-621.5 -120.5h-43q-301 0 -454.5 23.5 t-242.5 112.5t-89 282zM582 950q0 -90 61.5 -120.5t157.5 -30.5l301 2q106 0 168.5 32.5t62.5 120.5q0 80 -68.5 102.5t-242.5 22.5h-129q-137 0 -224 -10t-87 -119z" />
<glyph unicode=":" horiz-adv-x="659" d="M156 0v272h346v-272h-346zM156 680v270h346v-270h-346z" />
<glyph unicode=";" horiz-adv-x="655" d="M106 -92q154 0 154 86h-129v272h352v-248q0 -139 -63.5 -193t-263.5 -54h-50v137zM125 676v272h354v-272h-354z" />
<glyph unicode="&#x3c;" d="M102 575v222l1352 438v-268l-889 -279l889 -282v-269z" />
<glyph unicode="=" horiz-adv-x="1323" d="M47 510v141h1210v-141h-1210zM47 784v142h1210v-142h-1210z" />
<glyph unicode="&#x3e;" d="M102 967v278l1354 -448v-222l-1352 -436v269l887 280z" />
<glyph unicode="?" horiz-adv-x="1652" d="M154 922l2 67q0 109 20.5 175.5t106.5 115.5t228 67.5t296 18.5q373 0 538.5 -67.5t165.5 -290.5q0 -102 -19 -168t-80.5 -112t-266.5 -100.5t-205 -154.5l-4 -49h-379q0 178 47 239.5t235.5 114.5t246 73.5t57.5 133.5q0 98 -58.5 132t-210.5 34h-45 q-180 0 -243.5 -29.5t-63.5 -136.5v-63h-368zM557 0v274h373v-274h-373z" />
<glyph unicode="@" horiz-adv-x="2187" d="M150 643q0 381 169.5 505t673.5 124h166q551 0 718 -85t167 -425q0 -240 -69.5 -347.5t-334.5 -107.5q-119 0 -193.5 19.5t-107.5 79.5q-47 -55 -131 -78t-207 -23q-250 0 -323.5 83t-73.5 259q0 178 75 272.5t322 94.5q111 0 176.5 -14.5t120.5 -57.5v66h285l-2 -435 q8 -59 21.5 -83.5t83.5 -24.5q55 0 77.5 16.5t35.5 60.5t16.5 89t3.5 129v49q0 182 -63.5 245.5t-297.5 63.5q-117 0 -348 -2t-344 -2q-137 0 -224 -29.5t-118 -97t-39 -138.5t-8 -161v-37q0 -299 94 -388t522 -89h183h49q137 0 205.5 5t108.5 15.5t61.5 19.5t39.5 38 l218 -64q-41 -51 -77 -77.5t-110 -50t-198.5 -33t-286.5 -9.5h-193q-315 0 -478 30t-264 164t-101 431zM879 621q0 -86 33.5 -123t158.5 -37q152 0 192 38t40 140v76q0 76 -49.5 109.5t-166.5 33.5q-131 0 -169.5 -37t-38.5 -116v-84z" />
<glyph unicode="A" horiz-adv-x="1966" d="M-12 0l692 1358h592l704 -1358h-432l-131 254h-856l-125 -254h-444zM688 547h596l-301 563z" />
<glyph unicode="B" horiz-adv-x="1988" d="M184 0v1358h1059q301 0 443.5 -76t142.5 -270q0 -133 -53.5 -197.5t-233.5 -103.5q184 0 259 -81t75 -231q0 -213 -133 -306t-465 -93h-1094zM604 266h481h97q154 0 212 25.5t58 128.5q0 117 -77 128t-224 11h-547v-293zM604 825h477q41 0 80 -1t74 -1q96 0 133 23.5 t37 101.5q0 84 -45 102.5t-189 18.5h-567v-244z" />
<glyph unicode="C" horiz-adv-x="1935" d="M125 545v291q0 307 193.5 418.5t504.5 111.5h365q201 0 340 -25.5t215 -99.5t94 -154.5t18 -203.5h-415q-14 66 -21.5 98.5t-52.5 54t-121 27.5t-205 6h-63q-141 0 -220 -6t-125 -44t-60.5 -90t-14.5 -153v-188q0 -201 58.5 -251t242.5 -50h76t80 2h26q41 0 80 -1t78 -1 q127 0 190.5 23.5t63.5 99.5v100h414q0 -37 2 -66.5t4 -58.5q0 -221 -195.5 -308t-521.5 -87h-305q-422 0 -573.5 134t-151.5 421z" />
<glyph unicode="D" horiz-adv-x="2093" d="M184 0v1358h1020q410 0 599.5 -119t189.5 -385l4 -227q0 -301 -143.5 -464t-581.5 -163h-1088zM606 270h537q266 0 342 85t76 274v202q0 115 -82 172.5t-312 57.5h-561v-791z" />
<glyph unicode="E" horiz-adv-x="1716" d="M141 0v1358h1413v-301h-1003v-232h956v-262h-956v-274h1014v-289h-1424z" />
<glyph unicode="F" horiz-adv-x="1617" d="M182 0v1358h1379v-301h-955v-244h905v-291h-905v-522h-424z" />
<glyph unicode="G" horiz-adv-x="2017" d="M113 528v254q0 362 201.5 474t660.5 112h180q432 0 602 -83t170 -359h-424q0 96 -51 134t-184 38h-414q-205 0 -255 -76t-50 -240v-260q0 -182 85 -220t404 -38q248 0 360.5 18.5t112.5 211.5h-518v243h936v-262q0 -287 -126 -380t-359 -93q-100 0 -252 -6t-154 -6 q-506 0 -715.5 108.5t-209.5 429.5z" />
<glyph unicode="H" horiz-adv-x="2136" d="M184 0v1358h422v-518h920v518h428v-1358h-428v545h-920v-545h-422z" />
<glyph unicode="I" horiz-adv-x="765" d="M178 0v1358h400v-1358h-400z" />
<glyph unicode="J" horiz-adv-x="1622" d="M70 362v191h399v-125q0 -113 43 -148.5t215 -35.5q166 0 227.5 32.5t61.5 137.5v944h422v-942q0 -238 -143.5 -332t-512.5 -94q-365 0 -538.5 72.5t-173.5 299.5z" />
<glyph unicode="K" horiz-adv-x="1982" d="M109 2v1356h421v-514h164l660 514h530l-837 -660l923 -694h-547l-729 545h-164v-547h-421z" />
<glyph unicode="L" horiz-adv-x="1570" d="M182 0v1358h428v-1055h942v-303h-1370z" />
<glyph unicode="M" horiz-adv-x="2586" d="M184 0v1358h664l455 -946l495 946h631v-1358h-406v1022l-528 -1022h-373l-538 1020v-1020h-400z" />
<glyph unicode="N" horiz-adv-x="2031" d="M111 0v1358h673l701 -1061v1061h420v-1358h-680l-713 1063v-1063h-401z" />
<glyph unicode="O" horiz-adv-x="1988" d="M113 426v524q0 178 174 294t372 116h631q246 0 428.5 -108.5t182.5 -301.5v-524q0 -209 -194 -318.5t-435 -109.5q-16 -2 -72.5 -3t-95.5 -1q-227 0 -298 1t-124 5q-231 0 -400 114.5t-169 311.5zM537 551q0 -133 65.5 -207t204.5 -74h340q174 0 248.5 70t74.5 211v248 q0 141 -75.5 220t-247.5 79h-340q-137 0 -203.5 -76t-66.5 -213v-258z" />
<glyph unicode="P" horiz-adv-x="1904" d="M182 0v1358h834q455 0 637 -89t182 -378q0 -283 -179 -373t-618 -90h-440v-428h-416zM598 707h424q188 0 284.5 15t96.5 169q0 113 -60.5 143.5t-279.5 30.5h-465v-358z" />
<glyph unicode="Q" horiz-adv-x="2125" d="M113 426v524q0 178 174 294t372 116h590q217 0 434.5 -102.5t217.5 -260.5v-571q0 -37 -6.5 -65.5t-18.5 -63.5l209 -94l-184 -172l-185 82q-86 -55 -208 -85t-236 -30q-16 -2 -72.5 -3t-95.5 -1q-227 0 -298 1t-124 5q-231 0 -400 114.5t-169 311.5zM537 528 q0 -133 65.5 -206.5t204.5 -73.5h340q120 0 192 33l-401 182l123 199l405 -183q4 16 4 49v258q0 139 -75.5 213t-247.5 74h-340q-137 0 -203.5 -74.5t-66.5 -212.5v-258z" />
<glyph unicode="R" horiz-adv-x="2000" d="M180 0v1358h1010q371 0 526.5 -91t155.5 -331q0 -133 -95.5 -234.5t-277.5 -119.5q176 0 262 -72t86 -203v-307h-428v264q0 88 -73.5 122t-219.5 34h-532v-420h-414zM594 713h532q176 0 243 33.5t67 138.5q0 96 -48.5 134t-236.5 38h-557v-344z" />
<glyph unicode="S" horiz-adv-x="1867" d="M96 391q0 10 3 34t3 32h404q0 -113 39 -157t190 -44l295 -2q160 0 244 12.5t84 141.5q0 104 -74 135.5t-233 31.5q-43 0 -88 -1t-91 -1q-418 0 -593 73t-175 335q0 223 173.5 304t650.5 81q264 0 428 -24.5t268.5 -108.5t104.5 -250v-70h-410q0 119 -75 146.5t-335 27.5 q-221 0 -302 -28.5t-81 -102.5q0 -88 53 -113.5t207 -25.5h201q258 0 420 -23.5t265.5 -107.5t103.5 -258q0 -213 -110 -306t-272.5 -110.5t-484.5 -17.5q-293 0 -453.5 22.5t-260 108.5t-99.5 266z" />
<glyph unicode="T" horiz-adv-x="1632" d="M4 1055v303h1618v-303h-600v-1055h-428v1055h-590z" />
<glyph unicode="U" horiz-adv-x="2093" d="M188 492v864h424v-864q0 -129 81 -167t290 -38h135q223 0 299 24.5t76 147.5v897h424v-897q0 -246 -210 -357.5t-638 -111.5q-461 0 -671 100t-210 402z" />
<glyph unicode="V" horiz-adv-x="1882" d="M-29 1358h437l532 -1090l533 1090h438l-668 -1358h-612z" />
<glyph unicode="W" horiz-adv-x="2797" d="M-12 1358h432l364 -989l336 989h477l416 -989l375 989h436l-565 -1358h-502l-409 956l-318 -956h-493z" />
<glyph unicode="X" horiz-adv-x="1925" d="M-33 0l674 700l-625 658h496l455 -514l454 514h482l-607 -658l656 -700h-490l-495 549l-502 -549h-498z" />
<glyph unicode="Y" horiz-adv-x="1857" d="M-33 1358h482l475 -555l475 555h489l-762 -840v-518h-417v516z" />
<glyph unicode="Z" horiz-adv-x="1800" d="M70 0v244l1085 813h-1040v301h1601v-289l-1098 -817h1098l15 -252h-1661z" />
<glyph unicode="[" horiz-adv-x="964" d="M168 -203v1561h641v-223h-252v-1115h252v-223h-641z" />
<glyph unicode="\" horiz-adv-x="1892" d="M203 1358h297l1376 -1561h-295z" />
<glyph unicode="]" horiz-adv-x="964" d="M156 20h252v1113h-252v225h641v-1561h-641v223z" />
<glyph unicode="^" d="M63 1153l506 608h420l502 -608h-369l-346 408l-346 -408h-367z" />
<glyph unicode="_" d="M-2 -125h1563v-154h-1563v154z" />
<glyph unicode="`" d="M473 1190l135 158l479 -203l-90 -101z" />
<glyph unicode="a" horiz-adv-x="1636" d="M127 281q0 174 136 241.5t411 67.5q131 0 200.5 -5t109.5 -15.5t61.5 -25t44.5 -32.5l2 106q0 104 -58.5 134t-230.5 30h-60q-66 0 -108.5 -8t-63.5 -33q-14 -23 -14 -63v-31h-379q0 197 150.5 254t459.5 57q348 0 516.5 -64.5t168.5 -275.5v-618h-373l6 90 q-76 -66 -175.5 -85t-268.5 -19q-256 0 -395.5 66.5t-139.5 228.5zM504 305q0 -86 58.5 -108.5t205.5 -22.5q160 0 245 20.5t85 102.5q0 78 -91.5 97.5t-228.5 19.5q-106 0 -190 -26t-84 -83z" />
<glyph unicode="b" horiz-adv-x="1650" d="M168 0v1358h373v-520q82 45 188 91t219 46q360 0 469 -110.5t109 -364.5q0 -268 -101.5 -389t-470.5 -121q-150 0 -243 27.5t-170 101.5v-119h-373zM541 444q0 -145 48 -195t263 -50q188 0 244.5 58t56.5 187v113q0 129 -51 171t-250 42q-207 0 -259 -41t-52 -172v-113z " />
<glyph unicode="c" horiz-adv-x="1529" d="M135 440q0 287 122 404t538 117q326 0 489.5 -60.5t163.5 -253.5l-6 -49h-355q0 111 -62 137.5t-237 26.5q-147 0 -210.5 -41t-63.5 -217v-88q0 -127 48 -176.5t233 -49.5q188 0 245.5 34t57.5 157h364q0 -229 -142 -311t-525 -82q-367 0 -513.5 95t-146.5 357z" />
<glyph unicode="d" horiz-adv-x="1644" d="M127 516q0 229 108.5 343t438.5 114q160 0 257 -21.5t169 -89.5v496h381v-1358h-365v113q-76 -74 -171 -98.5t-265 -24.5q-369 0 -461 125t-92 401zM494 440q0 -145 62 -196t235 -51q172 0 240.5 38.5t68.5 171.5v154q0 109 -63.5 161t-252.5 52q-172 0 -231 -54 t-59 -159v-117z" />
<glyph unicode="e" horiz-adv-x="1581" d="M119 498q0 260 131 362.5t528 102.5q428 0 554 -115t126 -426h-966q0 -141 55 -191.5t274 -50.5q141 0 206 23.5t65 122.5h360q0 -227 -150.5 -282.5t-480.5 -55.5q-444 0 -573 106.5t-129 403.5zM492 590h600q0 115 -55.5 147.5t-248.5 32.5q-172 0 -234 -38t-62 -142z " />
<glyph unicode="f" horiz-adv-x="964" d="M37 741v244h196v64q0 70 13.5 125t73 107t154.5 70.5t292 18.5h174v-227q-80 12 -123 12q-14 0 -31.5 -2t-25.5 -2q-102 0 -129 -18.5t-27 -83.5v-64h344v-244h-344v-741h-371v741h-196z" />
<glyph unicode="g" horiz-adv-x="1650" d="M123 481q0 246 110.5 364t462.5 118q168 0 255 -24t165 -101v112h363v-964q0 -236 -151.5 -322t-524.5 -86q-215 0 -361.5 24.5t-197.5 90t-59.5 110.5t-8.5 125h356q0 -92 51.5 -109.5t202.5 -17.5q172 0 251 31t79 133v158q-51 -82 -156.5 -111.5t-254.5 -29.5 q-326 0 -454 109.5t-128 389.5zM506 446q0 -131 52.5 -181t242.5 -50q199 0 257 63.5t58 167.5v74q0 88 -59.5 149.5t-255.5 61.5q-178 0 -236.5 -43t-58.5 -168v-74z" />
<glyph unicode="h" horiz-adv-x="1660" d="M168 0v1358h371l2 -518q76 78 170 107.5t250 29.5q272 0 398 -76t126 -250v-651h-375v526q0 96 -50 135t-200 39q-182 0 -250.5 -51t-68.5 -170v-479h-373z" />
<glyph unicode="i" horiz-adv-x="655" d="M154 0v963h346v-963h-346zM154 1135v223h346v-223h-346z" />
<glyph unicode="j" horiz-adv-x="624" d="M-47 -135q94 0 127 29.5t33 91.5v975h354v-994q0 -145 -84 -222t-293 -77q-23 0 -56.5 4t-80.5 11v182zM111 1128v226h362v-226h-362z" />
<glyph unicode="k" horiz-adv-x="1497" d="M172 2v1356h363v-733h53l368 338h428l-489 -453l616 -510l-458 4l-463 387h-55v-389h-363z" />
<glyph unicode="l" horiz-adv-x="698" d="M176 0v1358h352v-1358h-352z" />
<glyph unicode="m" horiz-adv-x="2402" d="M172 0v950h365v-108q76 68 157.5 93.5t220.5 25.5q182 0 306.5 -37t156.5 -138q33 88 136.5 131.5t263.5 43.5q272 0 397 -89.5t125 -267.5v-604h-383v559q0 98 -44 135t-196 37q-129 0 -191.5 -31.5t-62.5 -164.5v-535h-385v567q0 94 -42 129t-195 35q-160 0 -207 -45 t-47 -158v-528h-375z" />
<glyph unicode="n" horiz-adv-x="1513" d="M168 0v950h373v-116q82 76 160.5 103.5t226.5 27.5q276 0 400 -71t124 -249v-645h-371v559q0 104 -46 140t-206 36q-289 0 -288 -190v-545h-373z" />
<glyph unicode="o" horiz-adv-x="1615" d="M141 428v111q0 250 142.5 337t541.5 87q401 0 546 -92.5t145 -350.5v-108q0 -254 -133.5 -339t-557.5 -85q-399 0 -541.5 87t-142.5 353zM522 430q0 -127 41 -173t228 -46h83q170 0 218.5 42t48.5 175v92q0 139 -39 180t-228 41h-83q-186 0 -227.5 -41t-41.5 -180v-90z " />
<glyph unicode="p" horiz-adv-x="1652" d="M168 -397v1347h364v-106q78 70 172 93.5t244 23.5q362 0 471 -113t109 -367q0 -313 -142.5 -407t-416.5 -94q-160 0 -253 21.5t-171 88.5l-6 -487h-371zM537 422q0 -113 65.5 -171t202.5 -58h84q141 0 203.5 50t62.5 177v92q0 129 -56.5 183.5t-209.5 54.5h-84 q-166 0 -217 -51.5t-51 -186.5v-90z" />
<glyph unicode="q" horiz-adv-x="1658" d="M131 459q0 260 103.5 381t465.5 121q168 0 258.5 -20.5t167.5 -92.5v106h371v-1351h-373v512q-57 -68 -164.5 -101.5t-250.5 -33.5q-352 0 -465 115.5t-113 363.5zM504 424q0 -113 64.5 -171t203.5 -58h84q141 0 203.5 50t62.5 177v92q0 129 -56 183.5t-210 54.5h-84 q-166 0 -217 -51.5t-51 -186.5v-90z" />
<glyph unicode="r" horiz-adv-x="1310" d="M172 0v950h373v-121q66 45 149.5 90.5t184.5 45.5q236 0 324.5 -80t88.5 -238v-82h-348v62q0 70 -27.5 90t-144.5 20q-125 0 -176 -53t-51 -143v-541h-373z" />
<glyph unicode="s" horiz-adv-x="1546" d="M104 256v66h377q0 -88 43 -106.5t187 -18.5h104q31 0 59.5 -1t55.5 -1q74 0 107.5 18t33.5 76q0 59 -42 75.5t-142 16.5q-297 0 -432.5 10t-238.5 75.5t-103 217.5q0 137 121.5 210t506.5 73q184 0 318.5 -13.5t233 -65.5t98.5 -161q0 -20 -5.5 -34.5t-7.5 -22.5h-350 q0 59 -63.5 72.5t-130.5 17.5l-150 -2q-70 -2 -138.5 -14.5t-68.5 -67.5t24.5 -68.5t96.5 -13.5h53q297 0 427 -9.5t247 -70.5t117 -205q0 -193 -166 -258t-488 -65q-311 0 -497.5 50t-186.5 220z" />
<glyph unicode="t" horiz-adv-x="1179" d="M10 735v223h183v205h370v-205h541v-223h-541v-407q0 -72 20.5 -103.5t108.5 -31.5q96 0 124 32.5t28 100.5v61h311l8 -63q0 -178 -104.5 -257t-378.5 -79q-264 0 -375.5 62.5t-111.5 228.5v456h-183z" />
<glyph unicode="u" horiz-adv-x="1644" d="M174 319v629h375v-555q0 -102 42 -140t191 -38q182 0 250 69.5t68 164.5v499h373v-948h-357v150q-41 -84 -156.5 -124t-287.5 -40q-254 0 -376 83t-122 250z" />
<glyph unicode="v" horiz-adv-x="1366" d="M-16 950h383l323 -735l299 735h387l-418 -950h-532z" />
<glyph unicode="w" horiz-adv-x="2017" d="M4 950h371l243 -669l189 669h383l240 -706l196 706h369l-336 -950h-445l-202 707l-226 -707h-446z" />
<glyph unicode="x" horiz-adv-x="1386" d="M-18 0l475 500l-416 450h422l231 -280l230 280h428l-414 -450l461 -500h-434l-271 326l-270 -326h-442z" />
<glyph unicode="y" horiz-adv-x="1347" d="M-16 954h387l344 -759l264 759h385l-385 -1009q-74 -190 -180.5 -278.5t-370.5 -88.5q-39 0 -75 2t-79 10v191l93 -8q117 0 169 61.5t76 155.5h-147z" />
<glyph unicode="z" horiz-adv-x="1318" d="M59 0v238l721 495h-657v217h1130v-225l-737 -506h737v-219h-1194z" />
<glyph unicode="{" d="M346 395v221q96 16 134 54.5t38 105.5v291q0 156 112.5 235.5t489.5 79.5h80v-256q-160 0 -224.5 -26.5t-64.5 -145.5v-219q0 -90 -27.5 -142t-115.5 -93q84 -41 113.5 -97.5t29.5 -140.5v-221q0 -119 59.5 -150.5t229.5 -31.5v-240l-80 -4h-102q-238 0 -369 61.5 t-131 274.5v274q0 70 -34.5 111t-137.5 59z" />
<glyph unicode="|" d="M588 -340v1696h381v-1696h-381z" />
<glyph unicode="}" d="M358 -137q160 0 224.5 26.5t64.5 147.5v217q0 88 29 142.5t115 95.5q-84 41 -114 96t-30 141v219q0 119 -59.5 152t-229.5 33v239l82 2q309 0 454.5 -48t145.5 -288v-272q0 -70 35 -112t137 -60v-219q-94 -16 -133 -55t-39 -105v-291q0 -201 -151.5 -258t-448.5 -57h-82 v254z" />
<glyph unicode="~" horiz-adv-x="1472" d="M39 711q84 115 193.5 180t273.5 65q92 0 238.5 -57t230.5 -57q76 0 132 35t105 92l218 -103q-86 -115 -200 -184.5t-274 -69.5q-90 0 -231 59.5t-231 59.5q-80 0 -135.5 -31.5t-108.5 -93.5z" />
<glyph unicode="&#xa0;" />
<glyph unicode="&#xa1;" horiz-adv-x="858" d="M248 0l24 915h344l23 -915h-391zM266 1079v275h355v-275h-355z" />
<glyph unicode="&#xa2;" horiz-adv-x="1957" d="M319 651q0 236 114 353.5t441 117.5v121h224v-121q281 0 404.5 -85t123.5 -285h-356q0 86 -34 119.5t-138 43.5v-565q121 14 154.5 53.5t33.5 135.5h356q0 -221 -112.5 -308.5t-431.5 -87.5v-149h-224v149q-352 0 -453.5 120t-101.5 388zM700 604q0 -80 11.5 -136 t48.5 -83q16 -16 50 -24.5t64 -8.5v563q-106 -16 -140 -64t-34 -136v-111z" />
<glyph unicode="&#xa3;" horiz-adv-x="1957" d="M137 506v217h252v178q0 281 150.5 375t582.5 94q436 0 589 -87t153 -378h-410q0 129 -56.5 174t-236.5 45h-39q-195 0 -256 -37.5t-61 -160.5v-203h549v-217h-549v-98q0 -61 -20.5 -99.5t-75.5 -72.5l1173 2v-238h-1687v233q121 0 157.5 55.5t36.5 149.5v68h-252z" />
<glyph unicode="&#xa4;" horiz-adv-x="1757" d="M127 1159l182 144l242 -199q88 41 167 61.5t167 20.5q82 0 155.5 -20.5t157.5 -61.5l242 196l178 -143l-244 -194q104 -127 105 -269q0 -68 -25 -131t-70 -133l240 -188l-176 -148l-234 191q-160 -88 -342 -88q-78 0 -161.5 23.5t-169.5 64.5l-232 -191l-178 142l236 194 q-92 125 -93 266q0 70 25 132.5t74 132.5zM557 696q0 -104 96.5 -180t223.5 -76q133 0 226 75t93 181q0 104 -93 179t-226 75q-129 0 -224.5 -74.5t-95.5 -179.5z" />
<glyph unicode="&#xa5;" horiz-adv-x="1566" d="M49 1358h365l362 -555l365 555h375l-265 -377h185v-219h-338l-90 -125h428v-217h-512v-420h-301v420h-494v217h412l-84 125h-328v219h176z" />
<glyph unicode="&#xa6;" d="M588 334h381v-674h-381v674zM588 635v721h381v-721h-381z" />
<glyph unicode="&#xa7;" horiz-adv-x="1566" d="M123 516q0 104 27.5 161.5t117.5 88.5q-61 45 -78.5 104.5t-17.5 151.5q0 170 112.5 258t487.5 88h35q291 0 434 -58.5t143 -273.5v-92h-315q0 125 -48 158t-196 33h-116q-131 0 -169 -22.5t-38 -92.5q0 -90 39 -103.5t135 -31.5l411 -84q213 -37 283 -95.5t70 -230.5 q0 -88 -24.5 -149.5t-96.5 -100.5q82 -41 103.5 -98t21.5 -160q0 -174 -82 -256t-218 -104.5t-362 -22.5q-360 0 -497.5 76t-137.5 369h314q0 -111 32.5 -156t141.5 -45q20 -2 72.5 -4t134.5 -2q141 0 207.5 21.5t66.5 115.5q0 76 -36 98.5t-144 46.5l-539 95 q-172 27 -223 94t-51 223zM426 545q0 -76 25.5 -99.5t117.5 -42.5l379 -75q55 -11 96 -11q57 0 84 35t33 92q0 76 -37 101.5t-145 46.5l-334 70q-49 12 -100 12q-66 0 -92.5 -36t-26.5 -93z" />
<glyph unicode="&#xa8;" d="M356 1100v162h299v-162h-299zM903 1100v162h297v-162h-297z" />
<glyph unicode="&#xa9;" horiz-adv-x="1935" d="M104 680q0 291 252.5 497.5t612.5 206.5q354 0 607 -207.5t253 -496.5q0 -285 -253 -495t-607 -210t-609.5 209t-255.5 496zM274 680q0 -231 204 -398t489 -167q287 0 489.5 168t202.5 397q0 233 -202 398t-490 165q-287 0 -490 -164t-203 -399zM492 680q0 178 132 300 t349 122q174 0 300 -82t140 -232h-164q-23 82 -99.5 118t-180.5 36q-131 0 -201 -75.5t-70 -186.5q0 -104 72 -180t199 -76q119 0 196 49.5t95 149.5h167q-16 -166 -141 -262.5t-317 -96.5q-215 0 -346 119t-131 297z" />
<glyph unicode="&#xaa;" horiz-adv-x="1957" d="M459 557v137h1038v-137h-1038zM535 946q0 111 83.5 154t251.5 43q84 0 140.5 -5t97.5 -30l2 39q0 57 -33 72.5t-129 15.5q-70 0 -100.5 -5t-30.5 -73h-252q0 129 91.5 166t283.5 37q231 0 327.5 -39t96.5 -174v-377h-254l6 43q-47 -31 -104.5 -40t-145.5 -9 q-162 0 -246.5 42t-84.5 140zM782 965q0 -43 30 -56.5t91 -13.5h43h31q66 0 99.5 12.5t33.5 53.5q0 29 -27.5 43t-124.5 14q-123 0 -149.5 -9.5t-26.5 -43.5z" />
<glyph unicode="&#xab;" horiz-adv-x="1466" d="M141 504l365 481l256 -94l-285 -385l305 -367l-245 -106zM682 512l367 481l262 -98l-293 -383l311 -373l-250 -100z" />
<glyph unicode="&#xac;" horiz-adv-x="5701" d="M412 289q0 109 50 261t99 224l129 176q16 20 28.5 35.5t16.5 26.5q-94 0 -138 42t-58 142q14 -2 28.5 -3t28.5 -1q113 0 222.5 60.5t211.5 160.5q4 12 12 12q10 0 17.5 -23.5t7.5 -45.5q0 -160 -102 -240q-84 -55 -166 -108q-18 -35 -115.5 -167t-97.5 -235 q0 -66 31.5 -160t72.5 -94q84 0 259 125t270 193q16 33 77.5 192.5t102.5 208.5t67 80q37 35 74 35q23 0 40 -17.5t17 -42.5q0 -94 -79.5 -165.5t-145.5 -114.5q-12 -23 -38.5 -136.5t-26.5 -140.5q0 -49 66.5 -150.5t142.5 -193.5q53 260 287.5 541t533.5 486.5t514 249.5 t345 67.5t257 37t285 13.5q289 0 574.5 -47t427.5 -148.5t238.5 -323.5t96.5 -587q0 -295 -167 -432t-468 -137q-84 0 -186.5 28.5t-102.5 94.5q0 41 23.5 62.5t58.5 21.5q39 0 75 -21.5t54 -56.5q12 -31 45 -51.5t78 -30.5q229 0 351 127t122 375q6 59 6 129 q0 301 -144 548.5t-608 307t-618 59.5q-131 0 -302 -28.5t-362.5 -61.5t-520 -255t-571.5 -517t-271 -526q45 -63 70.5 -135t25.5 -144q0 -47 -7 -74.5t-38 -27.5q-57 0 -91 100t-34 174v25q-125 98 -209 182t-92 143.5t-10 89t-2 64.5q0 39 6 67q-186 -154 -374.5 -280.5 t-303.5 -126.5q-37 0 -66.5 23.5t-29.5 58.5zM1763 84q0 12 9.5 43t91.5 31q27 0 62.5 -11.5t64 -38t28.5 -61.5q0 -10 -2 -16q-6 -27 -33.5 -42.5t-66.5 -15.5q-27 0 -60.5 9.5t-63.5 39t-30 62.5zM2023 248q0 106 74 190t184 115l7 -18q-82 -33 -128 -74t-53 -119 q0 -156 168 -212t373 -56q145 0 284.5 45t221.5 105.5t114.5 110.5t32.5 105q0 84 -67.5 107.5t-169.5 23.5q-41 0 -138.5 -7t-144.5 -7q-156 0 -260 65.5t-104 217.5q0 211 189.5 332.5t410.5 121.5q76 0 115.5 -9t74.5 -50q16 8 33 8q25 0 47.5 -50t42.5 -69q12 -2 12 -18 q-10 -33 -59 -82t-59 -70q-6 -20 -21 -20q-10 0 -37.5 23.5t-49 28.5t-40 13.5t-18.5 28.5q0 27 36.5 76t36.5 82q0 41 -36.5 56t-90.5 15q-164 0 -318.5 -86t-154.5 -239q0 -88 76 -120t174 -32q53 0 140.5 5.5t101.5 5.5q178 0 284.5 -35t106.5 -174q0 -119 -80 -229.5 t-283.5 -264.5t-560.5 -154q-184 0 -325.5 73t-141.5 241zM3219 111q14 53 86 53q29 0 68 -11.5t67.5 -42t20.5 -67.5q-6 -25 -32.5 -39t-61.5 -14q-25 0 -62.5 10t-66.5 43t-19 68zM3598 168q0 47 29 93t76 93q80 -94 113.5 -115.5t84.5 -21.5q166 0 290 268.5t124 456.5 q0 109 -59.5 142.5t-173.5 33.5q-178 0 -194.5 -111.5t-39.5 -123.5l-26 67q4 29 4 47q0 14 -2 50t-2 57q0 102 47 159.5t198 57.5q182 0 306 -27t124 -131q0 -125 -119.5 -403.5t-216 -448.5t-160 -248.5t-157.5 -78.5q-82 0 -164 53t-82 131z" />
<glyph unicode="&#xad;" horiz-adv-x="737" d="M-2 387v234h737v-234h-737z" />
<glyph unicode="&#xae;" horiz-adv-x="1943" d="M104 680q0 291 252.5 497.5t612.5 206.5q354 0 607 -207.5t253 -496.5q0 -287 -252 -496t-608 -209q-354 0 -609.5 209t-255.5 496zM274 680q0 -231 204 -398t489 -167q287 0 489.5 168t202.5 397q0 233 -202 398t-490 165q-287 0 -490 -164t-203 -399zM592 274v811h418 q150 0 253 -55t103 -172q0 -61 -34.5 -109t-100.5 -83q90 -41 112.5 -194t45.5 -198h-207q-23 39 -28 184.5t-206 145.5h-147v-330h-209zM801 723h160q94 0 146 26.5t52 98.5q0 59 -51 83.5t-131 24.5h-176v-233z" />
<glyph unicode="&#xb0;" horiz-adv-x="1249" d="M248 1047q0 129 106.5 221t270.5 92q156 0 265 -91t109 -216q0 -123 -111.5 -215.5t-264.5 -92.5q-147 0 -261 91.5t-114 210.5zM397 1049q0 -70 67.5 -123.5t156.5 -53.5q94 0 163.5 53.5t69.5 127.5q0 72 -69.5 125t-161.5 53q-94 0 -160 -53.5t-66 -128.5z" />
<glyph unicode="&#xb1;" horiz-adv-x="1249" d="M37 74v151h1171v-151h-1171zM37 655v148h495v389h179v-389h497v-148h-497v-381h-179v381h-495z" />
<glyph unicode="&#xb2;" horiz-adv-x="1095" d="M74 692v176q0 137 92 180.5t286.5 62.5t260 46t65.5 100q0 39 -53 58.5t-174 19.5q-139 0 -187.5 -18.5t-48.5 -71.5v-37h-241v45q0 59 21.5 101.5t72.5 90.5t144.5 60.5t238.5 12.5q254 0 364.5 -50.5t110.5 -210.5q0 -135 -80 -199.5t-186.5 -82t-257 -31.5t-168 -31.5 t-17.5 -66.5v-10h709v-144h-952z" />
<glyph unicode="&#xb3;" horiz-adv-x="1105" d="M51 909q-2 16 4 54h242q0 -80 35 -104.5t166 -24.5h49q117 0 178 8t61 82q0 55 -36.5 67.5t-153.5 12.5h-154v161l142 2h51q88 0 110.5 11.5t22.5 66.5q0 53 -54.5 66.5t-176.5 13.5q-143 0 -180.5 -19.5t-43.5 -91.5h-241q0 141 102 213t342 72q248 0 374 -38t126 -179 q0 -82 -42 -125t-159 -57q123 -12 171 -54t48 -131q0 -119 -133 -185t-358 -66q-215 0 -353.5 66.5t-138.5 178.5z" />
<glyph unicode="&#xb4;" d="M473 1145l477 203l137 -158l-530 -146z" />
<glyph unicode="&#xb5;" horiz-adv-x="1761" d="M184 -344v1321h375v-531q0 -74 10.5 -112.5t57.5 -77.5q47 -35 113.5 -57.5t138.5 -22.5q160 0 240.5 85t80.5 198v518h377v-987h-377v123q-51 -63 -134 -104.5t-192 -41.5q-104 0 -176.5 26.5t-138.5 80.5v-418h-375z" />
<glyph unicode="&#xb6;" horiz-adv-x="1693" d="M-2 891q0 260 117.5 364.5t431.5 104.5h108h883v-1766h-256v1530h-172v-1530h-256v830l-217 2h-109q-131 0 -228 17.5t-174 77t-102.5 152.5t-25.5 218zM313 887q0 -150 58.5 -187.5t244.5 -37.5h238v456h-268q-180 0 -226.5 -40t-46.5 -191z" />
<glyph unicode="&#xb7;" horiz-adv-x="1566" d="M643 575v250h279v-250h-279z" />
<glyph unicode="&#xb8;" d="M532 -150l369 132l125 -148l-408 -88z" />
<glyph unicode="&#xb9;" horiz-adv-x="901" d="M86 1272l403 248h293v-822h-239v666l-305 -201z" />
<glyph unicode="&#xba;" horiz-adv-x="1957" d="M459 557v137h1038v-137h-1038zM555 1090q0 166 86 221t338 55q250 0 337 -55.5t87 -223.5v-47q0 -160 -80 -217t-313 -57q-295 0 -375 63.5t-80 260.5zM807 1032q0 -82 24.5 -104.5t112.5 -22.5h35q109 0 141.5 28t32.5 97v74q0 66 -28.5 93.5t-125.5 27.5h-43 q-31 0 -61.5 -1t-53 -14.5t-28.5 -44t-6 -75.5v-15v-43z" />
<glyph unicode="&#xbb;" horiz-adv-x="1466" d="M141 139l305 373l-286 383l256 98l366 -481l-395 -473zM682 139l307 365l-289 387l263 94l366 -481l-399 -471z" />
<glyph unicode="&#xbc;" horiz-adv-x="2990" d="M137 1128l404 248h293v-821h-240v666l-305 -201zM694 -10l1340 1358h295l-1346 -1358h-289zM1767 170v182l555 465h361v-485h145v-162h-145v-174h-242v174h-674zM1993 332h444l2 344z" />
<glyph unicode="&#xbd;" horiz-adv-x="3000" d="M76 1128l403 248h293v-821h-240v666l-305 -201zM694 -10l1340 1358h295l-1346 -1358h-289zM1968 -4v176q0 137 92 180t287 62.5t260.5 46t65.5 100.5q0 39 -53.5 58.5t-174.5 19.5q-139 0 -187 -18.5t-48 -71.5v-37h-242v45q0 59 21.5 101t73 90.5t144.5 60.5t238 12 q254 0 364.5 -50t110.5 -210q0 -135 -79.5 -199.5t-186 -82t-257 -32t-168 -31.5t-17.5 -66v-11h708v-143h-952z" />
<glyph unicode="&#xbe;" horiz-adv-x="2959" d="M102 776q-2 16 4 53h242q0 -80 35 -104.5t166 -24.5h49q117 0 178.5 8.5t61.5 82.5q0 55 -37 67t-154 12h-153v162l141 2h51q88 0 110.5 11.5t22.5 66.5q0 53 -54 66.5t-177 13.5q-143 0 -180 -19.5t-43 -91.5h-242q0 141 102.5 213t341.5 72q248 0 374 -38t126 -179 q0 -82 -42 -125t-159 -57q123 -12 171 -54.5t48 -130.5q0 -119 -133 -185.5t-358 -66.5q-215 0 -353.5 67t-138.5 179zM694 -10l1340 1358h295l-1346 -1358h-289zM1788 170v182l555 465h360v-485h146v-162h-146v-174h-241v174h-674zM2013 332h445l2 344z" />
<glyph unicode="&#xbf;" horiz-adv-x="1652" d="M141 360q0 104 17.5 170t79 113t268.5 103.5t207 197.5h379q0 -178 -47.5 -239.5t-196 -103.5t-232.5 -66q-106 -39 -106 -154q0 -98 53 -130t207 -32q209 0 282.5 22.5t73.5 137.5l-4 65h377q-10 -96 -18 -190q-20 -106 -111.5 -160.5t-231 -74t-300.5 -19.5 q-371 0 -534 66.5t-163 293.5zM723 1090v276h369v-276h-369z" />
<glyph unicode="&#xc0;" horiz-adv-x="1966" d="M-12 0l692 1358h592l704 -1358h-432l-131 254h-856l-125 -254h-444zM448 1630l135 158l479 -203l-90 -101zM688 547h596l-301 563z" />
<glyph unicode="&#xc1;" horiz-adv-x="1966" d="M-12 0l692 1358h592l704 -1358h-432l-131 254h-856l-125 -254h-444zM688 547h596l-301 563zM891 1565l477 203l137 -158l-530 -146z" />
<glyph unicode="&#xc2;" horiz-adv-x="1966" d="M-12 0l692 1358h592l704 -1358h-432l-131 254h-856l-125 -254h-444zM486 1560l491 180l498 -180l-86 -104l-412 102l-407 -102zM688 547h596l-301 563z" />
<glyph unicode="&#xc3;" horiz-adv-x="1966" d="M-12 0l692 1358h592l704 -1358h-432l-131 254h-856l-125 -254h-444zM418 1561q76 76 144.5 116.5t166.5 40.5q76 0 209 -45t213 -45q43 0 76.5 19.5t66.5 56.5l199 -67q-74 -78 -149.5 -119t-186.5 -41q-80 0 -209 43t-201 43q-39 0 -68.5 -17.5t-62.5 -50.5zM688 547 h596l-301 563z" />
<glyph unicode="&#xc4;" horiz-adv-x="1966" d="M-12 0l692 1358h592l704 -1358h-432l-131 254h-856l-125 -254h-444zM544 1479v162h299v-162h-299zM688 547h596l-301 563zM1091 1479v162h297v-162h-297z" />
<glyph unicode="&#xc5;" horiz-adv-x="1966" d="M-12 0l692 1358h592l704 -1358h-432l-131 254h-856l-125 -254h-444zM688 547h596l-301 563zM741 1596q0 84 68 143.5t174 59.5q98 0 168.5 -58.5t70.5 -138.5t-70.5 -138.5t-170.5 -58.5q-96 0 -168 57.5t-72 133.5zM837 1598q0 -43 43 -78t99 -35q59 0 104 35t45 82 t-43 80t-104 33q-59 0 -101.5 -35t-42.5 -82z" />
<glyph unicode="&#xc6;" horiz-adv-x="2938" d="M-47 0l989 1358h1888v-295h-999v-242h936v-264h-936v-268h999v-289h-1419v279h-801l-186 -279h-471zM760 500h651v563h-188z" />
<glyph unicode="&#xc7;" horiz-adv-x="1935" d="M125 545v291q0 307 193.5 418.5t504.5 111.5h365q201 0 340 -25.5t215 -99.5t94 -154.5t18 -203.5h-415q-14 66 -21.5 98.5t-52.5 54t-121 27.5t-205 6h-63q-141 0 -220 -6t-125 -44t-60.5 -90t-14.5 -153v-188q0 -201 58.5 -251t242.5 -50h76t80 2h26q41 0 80 -1t78 -1 q127 0 190.5 23.5t63.5 99.5v100h414q0 -37 2 -66.5t4 -58.5q0 -221 -195.5 -308t-521.5 -87h-305q-422 0 -573.5 134t-151.5 421zM714 -164l369 132l125 -148l-408 -88z" />
<glyph unicode="&#xc8;" horiz-adv-x="1716" d="M141 0v1358h1413v-301h-1003v-232h956v-262h-956v-274h1014v-289h-1424zM418 1620l135 158l479 -203l-90 -101z" />
<glyph unicode="&#xc9;" horiz-adv-x="1716" d="M141 0v1358h1413v-301h-1003v-232h956v-262h-956v-274h1014v-289h-1424zM780 1575l477 203l137 -158l-530 -146z" />
<glyph unicode="&#xca;" horiz-adv-x="1716" d="M141 0v1358h1413v-301h-1003v-232h956v-262h-956v-274h1014v-289h-1424zM404 1550l491 180l498 -180l-86 -104l-412 102l-407 -102z" />
<glyph unicode="&#xcb;" horiz-adv-x="1716" d="M141 0v1358h1413v-301h-1003v-232h956v-262h-956v-274h1014v-289h-1424zM483 1479v162h299v-162h-299zM1030 1479v162h297v-162h-297z" />
<glyph unicode="&#xcc;" horiz-adv-x="765" d="M-47 1620l135 158l479 -203l-90 -101zM178 0v1358h400v-1358h-400z" />
<glyph unicode="&#xcd;" horiz-adv-x="765" d="M178 0v1358h400v-1358h-400zM182 1575l477 203l137 -158l-530 -146z" />
<glyph unicode="&#xce;" horiz-adv-x="765" d="M-102 1581l491 180l498 -180l-86 -104l-412 102l-407 -102zM178 0v1358h400v-1358h-400z" />
<glyph unicode="&#xcf;" horiz-adv-x="765" d="M-31 1479v162h299v-162h-299zM178 0v1358h400v-1358h-400zM516 1479v162h297v-162h-297z" />
<glyph unicode="&#xd0;" horiz-adv-x="2136" d="M2 588v221h207v549h1018q410 0 599 -119t189 -385l4 -227q0 -303 -142 -465t-581 -162h-1087v588h-207zM629 270h538q264 0 340 85t76 274v202q0 115 -82 172.5t-311 57.5h-561v-252h280v-221h-280v-318z" />
<glyph unicode="&#xd1;" horiz-adv-x="2031" d="M111 0v1358h673l701 -1061v1061h420v-1358h-680l-713 1063v-1063h-401zM539 1561q76 76 144.5 116.5t166.5 40.5q76 0 209 -45t213 -45q43 0 76.5 19.5t66.5 56.5l199 -67q-74 -78 -149.5 -119t-186.5 -41q-80 0 -209 43t-201 43q-39 0 -68.5 -17.5t-62.5 -50.5z" />
<glyph unicode="&#xd2;" horiz-adv-x="1988" d="M113 426v524q0 178 174 294t372 116h631q246 0 428.5 -108.5t182.5 -301.5v-524q0 -209 -194 -318.5t-435 -109.5q-16 -2 -72.5 -3t-95.5 -1q-227 0 -298 1t-124 5q-231 0 -400 114.5t-169 311.5zM453 1620l135 158l479 -203l-90 -101zM537 551q0 -133 65.5 -207 t204.5 -74h340q174 0 248.5 70t74.5 211v248q0 141 -75.5 220t-247.5 79h-340q-137 0 -203.5 -76t-66.5 -213v-258z" />
<glyph unicode="&#xd3;" horiz-adv-x="1988" d="M113 426v524q0 178 174 294t372 116h631q246 0 428.5 -108.5t182.5 -301.5v-524q0 -209 -194 -318.5t-435 -109.5q-16 -2 -72.5 -3t-95.5 -1q-227 0 -298 1t-124 5q-231 0 -400 114.5t-169 311.5zM537 551q0 -133 65.5 -207t204.5 -74h340q174 0 248.5 70t74.5 211v248 q0 141 -75.5 220t-247.5 79h-340q-137 0 -203.5 -76t-66.5 -213v-258zM805 1575l477 203l137 -158l-530 -146z" />
<glyph unicode="&#xd4;" horiz-adv-x="1988" d="M113 426v524q0 178 174 294t372 116h631q246 0 428.5 -108.5t182.5 -301.5v-524q0 -209 -194 -318.5t-435 -109.5q-16 -2 -72.5 -3t-95.5 -1q-227 0 -298 1t-124 5q-231 0 -400 114.5t-169 311.5zM492 1591l491 180l498 -180l-86 -104l-412 102l-407 -102zM537 551 q0 -133 65.5 -207t204.5 -74h340q174 0 248.5 70t74.5 211v248q0 141 -75.5 220t-247.5 79h-340q-137 0 -203.5 -76t-66.5 -213v-258z" />
<glyph unicode="&#xd5;" horiz-adv-x="1988" d="M113 426v524q0 178 174 294t372 116h631q246 0 428.5 -108.5t182.5 -301.5v-524q0 -209 -194 -318.5t-435 -109.5q-16 -2 -72.5 -3t-95.5 -1q-227 0 -298 1t-124 5q-231 0 -400 114.5t-169 311.5zM437 1561q76 76 144.5 116.5t166.5 40.5q76 0 209 -45t213 -45 q43 0 76.5 19.5t66.5 56.5l199 -67q-74 -78 -149.5 -119t-186.5 -41q-80 0 -209 43t-201 43q-39 0 -68.5 -17.5t-62.5 -50.5zM537 551q0 -133 65.5 -207t204.5 -74h340q174 0 248.5 70t74.5 211v248q0 141 -75.5 220t-247.5 79h-340q-137 0 -203.5 -76t-66.5 -213v-258z" />
<glyph unicode="&#xd6;" horiz-adv-x="1988" d="M113 426v524q0 178 174 294t372 116h631q246 0 428.5 -108.5t182.5 -301.5v-524q0 -209 -194 -318.5t-435 -109.5q-16 -2 -72.5 -3t-95.5 -1q-227 0 -298 1t-124 5q-231 0 -400 114.5t-169 311.5zM537 551q0 -133 65.5 -207t204.5 -74h340q174 0 248.5 70t74.5 211v248 q0 141 -75.5 220t-247.5 79h-340q-137 0 -203.5 -76t-66.5 -213v-258zM600 1479v162h299v-162h-299zM1147 1479v162h297v-162h-297z" />
<glyph unicode="&#xd7;" horiz-adv-x="1249" d="M131 420l369 295l-365 299l127 96l359 -295l364 301l129 -102l-371 -299l367 -299l-125 -99l-362 299l-367 -301z" />
<glyph unicode="&#xd8;" horiz-adv-x="2129" d="M-2 -47v227l162 94q-14 25 -22.5 55.5t-13.5 80t-8 105.5t-3 147v38q0 387 169 520.5t752 133.5h140q215 0 355 -22.5t265 -100.5l295 170v-232l-156 -88q25 -51 36 -125.5t11 -146.5l-2 -145q0 -266 -51 -397.5t-240.5 -199t-601.5 -67.5h-129q-231 0 -387.5 21.5 t-271.5 99.5zM541 575l8 -75l926 551q-53 37 -133 48t-181 11h-237q-211 0 -293 -59.5t-82 -200.5q0 -45 -4 -155.5t-4 -119.5zM621 305q37 -31 94 -44t125 -13l213 -4q354 0 422.5 73.5t68.5 313.5v104v31q0 45 -6 88z" />
<glyph unicode="&#xd9;" horiz-adv-x="2093" d="M188 492v864h424v-864q0 -129 81 -167t290 -38h135q223 0 299 24.5t76 147.5v897h424v-897q0 -246 -210 -357.5t-638 -111.5q-461 0 -671 100t-210 402zM516 1641l135 158l479 -203l-90 -101z" />
<glyph unicode="&#xda;" horiz-adv-x="2093" d="M188 492v864h424v-864q0 -129 81 -167t290 -38h135q223 0 299 24.5t76 147.5v897h424v-897q0 -246 -210 -357.5t-638 -111.5q-461 0 -671 100t-210 402zM926 1575l477 203l137 -158l-530 -146z" />
<glyph unicode="&#xdb;" horiz-adv-x="2093" d="M188 492v864h424v-864q0 -129 81 -167t290 -38h135q223 0 299 24.5t76 147.5v897h424v-897q0 -246 -210 -357.5t-638 -111.5q-461 0 -671 100t-210 402zM553 1581l491 180l498 -180l-86 -104l-412 102l-407 -102z" />
<glyph unicode="&#xdc;" horiz-adv-x="2093" d="M188 492v864h424v-864q0 -129 81 -167t290 -38h135q223 0 299 24.5t76 147.5v897h424v-897q0 -246 -210 -357.5t-638 -111.5q-461 0 -671 100t-210 402zM628 1479v162h299v-162h-299zM1175 1479v162h297v-162h-297z" />
<glyph unicode="&#xdd;" horiz-adv-x="1857" d="M-33 1358h482l475 -555l475 555h489l-762 -840v-518h-417v516zM817 1606l477 203l137 -158l-530 -146z" />
<glyph unicode="&#xde;" horiz-adv-x="1847" d="M193 0v1358h407v-158h440q313 0 524.5 -116.5t211.5 -317.5q0 -199 -199 -314.5t-504 -115.5h-473v-336h-407zM600 555h377q170 0 282.5 51t112.5 160q0 111 -101.5 157t-281.5 46h-389v-414z" />
<glyph unicode="&#xdf;" horiz-adv-x="1347" d="M162 -231v1175q0 252 101.5 337t400.5 85q315 0 418.5 -77t103.5 -218q0 -119 -60.5 -161t-81 -49t-55.5 -19q158 -33 214.5 -130.5t56.5 -262.5q0 -221 -91.5 -343t-349.5 -122q-63 0 -122.5 11t-133.5 36v217q33 -16 88.5 -37t112.5 -21q119 0 154.5 73t35.5 190 q0 147 -41 224t-196 77h-47q-35 0 -60 -4v172l43 -2q115 0 177.5 28.5t62.5 114.5q0 72 -61.5 95.5t-165.5 23.5q-139 0 -171 -41t-32 -160v-1212h-301z" />
<glyph unicode="&#xe0;" horiz-adv-x="1636" d="M127 281q0 174 136 241.5t411 67.5q131 0 200.5 -5t109.5 -15.5t61.5 -25t44.5 -32.5l2 106q0 104 -58.5 134t-230.5 30h-60q-66 0 -108.5 -8t-63.5 -33q-14 -23 -14 -63v-31h-379q0 197 150.5 254t459.5 57q348 0 516.5 -64.5t168.5 -275.5v-618h-373l6 90 q-76 -66 -175.5 -85t-268.5 -19q-256 0 -395.5 66.5t-139.5 228.5zM354 1196l135 158l479 -203l-90 -101zM504 305q0 -86 58.5 -108.5t205.5 -22.5q160 0 245 20.5t85 102.5q0 78 -91.5 97.5t-228.5 19.5q-106 0 -190 -26t-84 -83z" />
<glyph unicode="&#xe1;" horiz-adv-x="1636" d="M127 281q0 174 136 241.5t411 67.5q131 0 200.5 -5t109.5 -15.5t61.5 -25t44.5 -32.5l2 106q0 104 -58.5 134t-230.5 30h-60q-66 0 -108.5 -8t-63.5 -33q-14 -23 -14 -63v-31h-379q0 197 150.5 254t459.5 57q348 0 516.5 -64.5t168.5 -275.5v-618h-373l6 90 q-76 -66 -175.5 -85t-268.5 -19q-256 0 -395.5 66.5t-139.5 228.5zM504 305q0 -86 58.5 -108.5t205.5 -22.5q160 0 245 20.5t85 102.5q0 78 -91.5 97.5t-228.5 19.5q-106 0 -190 -26t-84 -83zM737 1145l477 203l137 -158l-530 -146z" />
<glyph unicode="&#xe2;" horiz-adv-x="1636" d="M127 281q0 174 136 241.5t411 67.5q131 0 200.5 -5t109.5 -15.5t61.5 -25t44.5 -32.5l2 106q0 104 -58.5 134t-230.5 30h-60q-66 0 -108.5 -8t-63.5 -33q-14 -23 -14 -63v-31h-379q0 197 150.5 254t459.5 57q348 0 516.5 -64.5t168.5 -275.5v-618h-373l6 90 q-76 -66 -175.5 -85t-268.5 -19q-256 0 -395.5 66.5t-139.5 228.5zM375 1161l491 180l498 -180l-86 -104l-412 102l-407 -102zM504 305q0 -86 58.5 -108.5t205.5 -22.5q160 0 245 20.5t85 102.5q0 78 -91.5 97.5t-228.5 19.5q-106 0 -190 -26t-84 -83z" />
<glyph unicode="&#xe3;" horiz-adv-x="1636" d="M127 281q0 174 136 241.5t411 67.5q131 0 200.5 -5t109.5 -15.5t61.5 -25t44.5 -32.5l2 106q0 104 -58.5 134t-230.5 30h-60q-66 0 -108.5 -8t-63.5 -33q-14 -23 -14 -63v-31h-379q0 197 150.5 254t459.5 57q348 0 516.5 -64.5t168.5 -275.5v-618h-373l6 90 q-76 -66 -175.5 -85t-268.5 -19q-256 0 -395.5 66.5t-139.5 228.5zM293 1141q76 76 144.5 116.5t166.5 40.5q76 0 209 -45t213 -45q43 0 76.5 19.5t66.5 56.5l199 -67q-74 -78 -149.5 -119t-186.5 -41q-80 0 -209 43t-201 43q-39 0 -68.5 -17.5t-62.5 -50.5zM504 305 q0 -86 58.5 -108.5t205.5 -22.5q160 0 245 20.5t85 102.5q0 78 -91.5 97.5t-228.5 19.5q-106 0 -190 -26t-84 -83z" />
<glyph unicode="&#xe4;" horiz-adv-x="1636" d="M127 281q0 174 136 241.5t411 67.5q131 0 200.5 -5t109.5 -15.5t61.5 -25t44.5 -32.5l2 106q0 104 -58.5 134t-230.5 30h-60q-66 0 -108.5 -8t-63.5 -33q-14 -23 -14 -63v-31h-379q0 197 150.5 254t459.5 57q348 0 516.5 -64.5t168.5 -275.5v-618h-373l6 90 q-76 -66 -175.5 -85t-268.5 -19q-256 0 -395.5 66.5t-139.5 228.5zM419 1100v162h299v-162h-299zM504 305q0 -86 58.5 -108.5t205.5 -22.5q160 0 245 20.5t85 102.5q0 78 -91.5 97.5t-228.5 19.5q-106 0 -190 -26t-84 -83zM966 1100v162h297v-162h-297z" />
<glyph unicode="&#xe5;" horiz-adv-x="1636" d="M127 281q0 174 136 241.5t411 67.5q131 0 200.5 -5t109.5 -15.5t61.5 -25t44.5 -32.5l2 106q0 104 -58.5 134t-230.5 30h-60q-66 0 -108.5 -8t-63.5 -33q-14 -23 -14 -63v-31h-379q0 197 150.5 254t459.5 57q348 0 516.5 -64.5t168.5 -275.5v-618h-373l6 90 q-76 -66 -175.5 -85t-268.5 -19q-256 0 -395.5 66.5t-139.5 228.5zM504 305q0 -86 58.5 -108.5t205.5 -22.5q160 0 245 20.5t85 102.5q0 78 -91.5 97.5t-228.5 19.5q-106 0 -190 -26t-84 -83zM577 1237q0 84 68 143.5t174 59.5q98 0 168.5 -58.5t70.5 -138.5t-70.5 -138.5 t-170.5 -58.5q-96 0 -168 57.5t-72 133.5zM673 1239q0 -43 43 -78t99 -35q59 0 104 35t45 82t-43 80t-104 33q-59 0 -101.5 -35t-42.5 -82z" />
<glyph unicode="&#xe6;" horiz-adv-x="2555" d="M127 281q0 174 136 241.5t411 67.5q131 0 200.5 -5t109.5 -15.5t61.5 -25t44.5 -32.5l2 106q0 104 -58.5 134t-230.5 30h-60q-66 0 -108.5 -8t-63.5 -33q-14 -23 -14 -63v-31h-379q0 197 150.5 254t459.5 57q193 0 311 -12t204 -51q145 59 446 59q428 0 554 -114.5 t126 -427.5h-967q0 -141 56.5 -190.5t275.5 -49.5q137 0 203.5 23.5t66.5 121.5h359q0 -227 -150.5 -282t-478.5 -55q-287 0 -433.5 36.5t-203.5 128.5l-51 -55q-72 -66 -146.5 -85t-191.5 -19h-106q-256 0 -395.5 66.5t-139.5 228.5zM504 305q0 -86 58.5 -108.5 t205.5 -22.5q160 0 245 20.5t85 102.5q0 78 -91.5 97.5t-228.5 19.5q-106 0 -190 -26t-84 -83zM1462 582h602q0 113 -56 146.5t-247 33.5q-174 0 -236.5 -38t-62.5 -142z" />
<glyph unicode="&#xe7;" horiz-adv-x="1529" d="M135 440q0 287 122 404t538 117q326 0 489.5 -60.5t163.5 -253.5l-6 -49h-355q0 111 -62 137.5t-237 26.5q-147 0 -210.5 -41t-63.5 -217v-88q0 -127 48 -176.5t233 -49.5q188 0 245.5 34t57.5 157h364q0 -229 -142 -311t-525 -82q-367 0 -513.5 95t-146.5 357zM497 -164 l369 132l125 -148l-408 -88z" />
<glyph unicode="&#xe8;" horiz-adv-x="1581" d="M119 498q0 260 131 362.5t528 102.5q428 0 554 -115t126 -426h-966q0 -141 55 -191.5t274 -50.5q141 0 206 23.5t65 122.5h360q0 -227 -150.5 -282.5t-480.5 -55.5q-444 0 -573 106.5t-129 403.5zM326 1186l135 158l479 -203l-90 -101zM492 590h600q0 115 -55.5 147.5 t-248.5 32.5q-172 0 -234 -38t-62 -142z" />
<glyph unicode="&#xe9;" horiz-adv-x="1581" d="M119 498q0 260 131 362.5t528 102.5q428 0 554 -115t126 -426h-966q0 -141 55 -191.5t274 -50.5q141 0 206 23.5t65 122.5h360q0 -227 -150.5 -282.5t-480.5 -55.5q-444 0 -573 106.5t-129 403.5zM492 590h600q0 115 -55.5 147.5t-248.5 32.5q-172 0 -234 -38t-62 -142z M721 1145l477 203l137 -158l-530 -146z" />
<glyph unicode="&#xea;" horiz-adv-x="1581" d="M119 498q0 260 131 362.5t528 102.5q428 0 554 -115t126 -426h-966q0 -141 55 -191.5t274 -50.5q141 0 206 23.5t65 122.5h360q0 -227 -150.5 -282.5t-480.5 -55.5q-444 0 -573 106.5t-129 403.5zM330 1161l491 180l498 -180l-86 -104l-412 102l-407 -102zM492 590h600 q0 115 -55.5 147.5t-248.5 32.5q-172 0 -234 -38t-62 -142z" />
<glyph unicode="&#xeb;" horiz-adv-x="1581" d="M119 498q0 260 131 362.5t528 102.5q428 0 554 -115t126 -426h-966q0 -141 55 -191.5t274 -50.5q141 0 206 23.5t65 122.5h360q0 -227 -150.5 -282.5t-480.5 -55.5q-444 0 -573 106.5t-129 403.5zM391 1096v162h299v-162h-299zM492 590h600q0 115 -55.5 147.5 t-248.5 32.5q-172 0 -234 -38t-62 -142zM938 1096v162h297v-162h-297z" />
<glyph unicode="&#xec;" horiz-adv-x="655" d="M-100 1223l96 149l385 -211l-57 -94zM154 0v963h346v-963h-346z" />
<glyph unicode="&#xed;" horiz-adv-x="655" d="M145 1141l387 213l99 -150l-426 -155zM154 0v963h346v-963h-346z" />
<glyph unicode="&#xee;" horiz-adv-x="655" d="M-63 1155l395 197l387 -197l-57 -90l-330 115l-340 -115zM154 0v963h346v-963h-346z" />
<glyph unicode="&#xef;" horiz-adv-x="655" d="M8 1102v164h219v-164h-219zM154 0v963h346v-963h-346zM453 1102v164h219v-164h-219z" />
<glyph unicode="&#xf0;" horiz-adv-x="1697" d="M96 494q0 186 175 333.5t454 147.5q51 0 124 -8.5t130 -22.5q-61 59 -127 105.5t-147 87.5l-314 -140l-100 101l239 100q-123 45 -282 72l69 114q211 -45 424 -90l326 146l102 -99l-233 -108q340 -133 503 -304t163 -427q0 -221 -213 -376t-551 -155q-336 0 -539 150.5 t-203 372.5zM473 492q0 -133 90.5 -232.5t280.5 -99.5q199 0 290 102.5t91 241.5q0 127 -81 223t-261 96q-209 0 -309.5 -94t-100.5 -237z" />
<glyph unicode="&#xf1;" horiz-adv-x="1513" d="M168 0v950h373v-116q82 76 160.5 103.5t226.5 27.5q276 0 400 -71t124 -249v-645h-371v559q0 104 -46 140t-206 36q-289 0 -288 -190v-545h-373zM305 1141q76 76 144.5 116.5t166.5 40.5q76 0 209 -45t213 -45q43 0 76.5 19.5t66.5 56.5l199 -67q-74 -78 -149.5 -119 t-186.5 -41q-80 0 -209 43t-201 43q-39 0 -68.5 -17.5t-62.5 -50.5z" />
<glyph unicode="&#xf2;" horiz-adv-x="1615" d="M141 428v111q0 250 142.5 337t541.5 87q401 0 546 -92.5t145 -350.5v-108q0 -254 -133.5 -339t-557.5 -85q-399 0 -541.5 87t-142.5 353zM276 1196l135 158l479 -203l-90 -101zM522 430q0 -127 41 -173t228 -46h83q170 0 218.5 42t48.5 175v92q0 139 -39 180t-228 41h-83 q-186 0 -227.5 -41t-41.5 -180v-90z" />
<glyph unicode="&#xf3;" horiz-adv-x="1615" d="M141 428v111q0 250 142.5 337t541.5 87q401 0 546 -92.5t145 -350.5v-108q0 -254 -133.5 -339t-557.5 -85q-399 0 -541.5 87t-142.5 353zM522 430q0 -127 41 -173t228 -46h83q170 0 218.5 42t48.5 175v92q0 139 -39 180t-228 41h-83q-186 0 -227.5 -41t-41.5 -180v-90z M688 1145l477 203l137 -158l-530 -146z" />
<glyph unicode="&#xf4;" horiz-adv-x="1615" d="M141 428v111q0 250 142.5 337t541.5 87q401 0 546 -92.5t145 -350.5v-108q0 -254 -133.5 -339t-557.5 -85q-399 0 -541.5 87t-142.5 353zM367 1161l491 180l498 -180l-86 -104l-412 102l-407 -102zM522 430q0 -127 41 -173t228 -46h83q170 0 218.5 42t48.5 175v92 q0 139 -39 180t-228 41h-83q-186 0 -227.5 -41t-41.5 -180v-90z" />
<glyph unicode="&#xf5;" horiz-adv-x="1615" d="M141 428v111q0 250 142.5 337t541.5 87q401 0 546 -92.5t145 -350.5v-108q0 -254 -133.5 -339t-557.5 -85q-399 0 -541.5 87t-142.5 353zM289 1141q76 76 144.5 116.5t166.5 40.5q76 0 209 -45t213 -45q43 0 76.5 19.5t66.5 56.5l199 -67q-74 -78 -149.5 -119t-186.5 -41 q-80 0 -209 43t-201 43q-39 0 -68.5 -17.5t-62.5 -50.5zM522 430q0 -127 41 -173t228 -46h83q170 0 218.5 42t48.5 175v92q0 139 -39 180t-228 41h-83q-186 0 -227.5 -41t-41.5 -180v-90z" />
<glyph unicode="&#xf6;" horiz-adv-x="1615" d="M141 428v111q0 250 142.5 337t541.5 87q401 0 546 -92.5t145 -350.5v-108q0 -254 -133.5 -339t-557.5 -85q-399 0 -541.5 87t-142.5 353zM403 1096v162h299v-162h-299zM522 430q0 -127 41 -173t228 -46h83q170 0 218.5 42t48.5 175v92q0 139 -39 180t-228 41h-83 q-186 0 -227.5 -41t-41.5 -180v-90zM950 1096v162h297v-162h-297z" />
<glyph unicode="&#xf7;" horiz-adv-x="1249" d="M37 639v152h1171v-152h-1171zM492 367q0 45 38 78.5t93 33.5t93 -33.5t38 -78.5q0 -47 -38 -81t-93 -34t-93 33.5t-38 81.5zM492 1065q0 43 39 77t92 34q57 0 96 -33t39 -78q0 -43 -41 -79t-94 -36t-92 35t-39 80z" />
<glyph unicode="&#xf8;" horiz-adv-x="1607" d="M-2 -35v172l152 80q-18 43 -23.5 92t-5.5 117q0 315 120.5 418.5t592.5 103.5q197 0 323.5 -16.5t212.5 -77.5l236 125v-180l-133 -70q14 -37 20 -84t6 -88l-4 -182q0 -227 -158.5 -302t-533.5 -75q-197 0 -326 16.5t-223 77.5zM496 391l579 318q-23 25 -74 34t-114 9 h-51h-29q-152 0 -216.5 -17.5t-77.5 -80t-15 -100.5t-2 -101v-27v-35zM549 238q31 -27 90 -35t139 -8h31q213 0 262 56t49 216v86z" />
<glyph unicode="&#xf9;" horiz-adv-x="1644" d="M174 319v629h375v-555q0 -102 42 -140t191 -38q182 0 250 69.5t68 164.5v499h373v-948h-357v150q-41 -84 -156.5 -124t-287.5 -40q-254 0 -376 83t-122 250zM254 1196l135 158l479 -203l-90 -101z" />
<glyph unicode="&#xfa;" horiz-adv-x="1644" d="M174 319v629h375v-555q0 -102 42 -140t191 -38q182 0 250 69.5t68 164.5v499h373v-948h-357v150q-41 -84 -156.5 -124t-287.5 -40q-254 0 -376 83t-122 250zM725 1145l477 203l137 -158l-530 -146z" />
<glyph unicode="&#xfb;" horiz-adv-x="1644" d="M174 319v629h375v-555q0 -102 42 -140t191 -38q182 0 250 69.5t68 164.5v499h373v-948h-357v150q-41 -84 -156.5 -124t-287.5 -40q-254 0 -376 83t-122 250zM334 1161l491 180l498 -180l-86 -104l-412 102l-407 -102z" />
<glyph unicode="&#xfc;" horiz-adv-x="1644" d="M174 319v629h375v-555q0 -102 42 -140t191 -38q182 0 250 69.5t68 164.5v499h373v-948h-357v150q-41 -84 -156.5 -124t-287.5 -40q-254 0 -376 83t-122 250zM383 1096v162h299v-162h-299zM930 1096v162h297v-162h-297z" />
<glyph unicode="&#xfd;" horiz-adv-x="1347" d="M-16 954h387l344 -759l264 759h385l-385 -1009q-74 -190 -180.5 -278.5t-370.5 -88.5q-39 0 -75 2t-79 10v191l93 -8q117 0 169 61.5t76 155.5h-147zM612 1145l477 203l137 -158l-530 -146z" />
<glyph unicode="&#xfe;" horiz-adv-x="1779" d="M184 -328v1686h361v-529q88 88 204.5 135.5t280.5 47.5q313 0 483 -152.5t170 -363.5q0 -217 -165.5 -376t-485.5 -159q-143 0 -271 47t-206 127v-463h-371zM551 485q0 -133 92 -227t285 -94q197 0 291 93t94 228q0 127 -97.5 220.5t-283.5 93.5q-188 0 -284.5 -92.5 t-96.5 -221.5z" />
<glyph unicode="&#xff;" horiz-adv-x="1347" d="M-16 954h387l344 -759l264 759h385l-385 -1009q-74 -190 -180.5 -278.5t-370.5 -88.5q-39 0 -75 2t-79 10v191l93 -8q117 0 169 61.5t76 155.5h-147zM282 1096v162h299v-162h-299zM829 1096v162h297v-162h-297z" />
<glyph unicode="&#x152;" horiz-adv-x="2816" d="M113 426v524q0 178 175 293t371 115h2089v-301h-1003v-232h956v-262h-956v-274h1014v-289h-2077q-231 0 -400 114.5t-169 311.5zM537 551q0 -133 65.5 -207t204.5 -74h340q57 0 103 8.5t85 22.5v760q-74 37 -188 37h-340q-137 0 -203.5 -76t-66.5 -213v-258z" />
<glyph unicode="&#x153;" horiz-adv-x="2545" d="M141 428v111q0 250 142.5 337t541.5 87q352 0 504 -76q74 39 185.5 57.5t281.5 18.5q428 0 554 -115t126 -426h-967q0 -141 55.5 -191.5t274.5 -50.5q139 0 205.5 23.5t66.5 122.5h359q0 -227 -150.5 -282.5t-480.5 -55.5q-199 0 -328 15t-206 50q-74 -33 -190 -49 t-290 -16q-399 0 -541.5 87t-142.5 353zM522 430q0 -127 41 -173t228 -46h83q170 0 218.5 42t48.5 175v92q0 139 -39 180t-228 41h-83q-186 0 -227.5 -41t-41.5 -180v-90zM1509 590h602q0 115 -55 147.5t-248 32.5q-174 0 -236.5 -38t-62.5 -142z" />
<glyph unicode="&#x178;" horiz-adv-x="1857" d="M-33 1358h482l475 -555l475 555h489l-762 -840v-518h-417v516zM475 1479v162h299v-162h-299zM1022 1479v162h297v-162h-297z" />
<glyph unicode="&#x2c6;" d="M287 1161l491 180l498 -180l-86 -104l-412 102l-407 -102z" />
<glyph unicode="&#x2dc;" d="M242 1141q76 76 144.5 116.5t166.5 40.5q76 0 209 -45t213 -45q43 0 76.5 19.5t66.5 56.5l199 -67q-74 -78 -149.5 -119t-186.5 -41q-80 0 -209 43t-201 43q-39 0 -68.5 -17.5t-62.5 -50.5z" />
<glyph unicode="&#x2000;" horiz-adv-x="904" />
<glyph unicode="&#x2001;" horiz-adv-x="1809" />
<glyph unicode="&#x2002;" horiz-adv-x="904" />
<glyph unicode="&#x2003;" horiz-adv-x="1809" />
<glyph unicode="&#x2004;" horiz-adv-x="603" />
<glyph unicode="&#x2005;" horiz-adv-x="452" />
<glyph unicode="&#x2006;" horiz-adv-x="301" />
<glyph unicode="&#x2007;" horiz-adv-x="301" />
<glyph unicode="&#x2008;" horiz-adv-x="226" />
<glyph unicode="&#x2009;" horiz-adv-x="361" />
<glyph unicode="&#x200a;" horiz-adv-x="100" />
<glyph unicode="&#x2010;" horiz-adv-x="737" d="M-2 387v234h737v-234h-737z" />
<glyph unicode="&#x2011;" horiz-adv-x="737" d="M-2 387v234h737v-234h-737z" />
<glyph unicode="&#x2012;" horiz-adv-x="737" d="M-2 387v234h737v-234h-737z" />
<glyph unicode="&#x2013;" horiz-adv-x="1413" d="M57 387v234h1278v-234h-1278z" />
<glyph unicode="&#x2014;" horiz-adv-x="1822" d="M39 387v234h1716v-234h-1716z" />
<glyph unicode="&#x2018;" horiz-adv-x="645" d="M127 911v236q0 137 62.5 188t263.5 51h53v-129q-86 0 -120 -18t-34 -68h129v-260h-354z" />
<glyph unicode="&#x2019;" horiz-adv-x="645" d="M139 891v127q86 0 119 16.5t33 65.5h-127v258h352v-236q0 -133 -63.5 -185t-262.5 -52z" />
<glyph unicode="&#x201a;" horiz-adv-x="698" d="M139 -96q86 0 121 13t35 60l-4 9h-127v260h352v-236q0 -133 -64.5 -186t-261.5 -53h-51v133z" />
<glyph unicode="&#x201c;" horiz-adv-x="1177" d="M125 911v236q0 135 65.5 187t278.5 52h57v-129q-92 0 -129 -18t-37 -68h138v-260h-373zM639 911v236q0 135 65.5 187t276.5 52h53v-129q-90 0 -125 -18t-35 -68h136v-260h-371z" />
<glyph unicode="&#x201d;" horiz-adv-x="1177" d="M139 891v127q90 0 125 16.5t35 65.5h-133v258h369v-236q0 -135 -67 -186t-278 -51zM651 891v127q88 0 125 17.5t37 64.5h-137v258h373v-236q0 -133 -68 -185t-281 -52z" />
<glyph unicode="&#x201e;" horiz-adv-x="1177" d="M139 -96q86 0 123 17.5t37 64.5h-133v260h369v-236q0 -135 -68 -187t-277 -52h-51v133zM651 -96q88 0 125 17.5t37 64.5h-137v260h373v-236q0 -133 -69 -186t-280 -53h-49v133z" />
<glyph unicode="&#x2022;" horiz-adv-x="1499" d="M496 584q0 80 68.5 137t170.5 57q100 0 172 -57t72 -137t-70.5 -138.5t-173.5 -58.5q-100 0 -169.5 59.5t-69.5 137.5z" />
<glyph unicode="&#x2026;" horiz-adv-x="1980" d="M156 2v248h372v-248h-372zM801 2v248h379v-248h-379zM1452 2v248h371v-248h-371z" />
<glyph unicode="&#x202f;" horiz-adv-x="361" />
<glyph unicode="&#x2039;" horiz-adv-x="903" d="M143 512l353 481l249 -98l-280 -383l297 -369l-236 -104z" />
<glyph unicode="&#x203a;" horiz-adv-x="903" d="M141 141l297 371l-278 383l248 98l352 -481l-381 -473z" />
<glyph unicode="&#x205f;" horiz-adv-x="452" />
<glyph unicode="&#x2122;" horiz-adv-x="2281" d="M14 1186v174h840v-174h-301v-639h-244v639h-295zM944 547v813h352l291 -602h-55l289 602h362v-813h-241l6 571l-285 -571h-205l-287 569l9 -569h-236z" />
<glyph unicode="&#x25fc;" horiz-adv-x="952" d="M0 0v952h952v-952h-952z" />
</font>
</defs>
</svg>
